2160p arrow 2018 movies ita game of thrones house of cards titans s01e04 Supernatural Venom Incredibles 2 Outlander big bang theory español ddr ufc 230 UFC 2018 ITA ncis The Predator alpha Evo 0 the big bang theory s12e07 Empire ettv fabbriciani arrow español survivor Star Trek Discovery The Walking dead damerini Greys Anatomy ethd Doctor Who Supergirl haberkamp ita 2018 star trek discovery español dtone van helsing in mo yang WWE champian fulton It the flash titans seal team vikings blindspot coral egan shameless etrg etmovies venom ita evo office 2019 fgt Lucifer oceans eleven Big Bang Theory NFL Dtone great british bake off s09e10 ray donovan the nun The Equalizer 2 modern family Gotham A Discovery of Witches Outlander S04E01 hindi doctor who s11e05 the big bang theory 
Warning! Do not Download Without a VPN!
Your IP Address is .   Location is
Download and surf securely, stream unlimited and protect your personal data!
We strongly recommend using SpyOFF VPN!
Become Anonymous with SpyOFF
ETTV Recommended TV Shows
UFC 230 Cormier vs Lewis HDTV x264-Star [TJET] torrent
Ray.Donovan.S06E02.WEBRip.x264-PBS[ettv] torrent
Saturday.Night.Live.S44E04.Jonah.Hill.and.Maggie.Rogers.HDTV.x264-CRiMSON[ettv] torrent
Outlander.S04E01.WEB.H264-MEMENTO[ettv] torrent

ETTV Recommended Xvid
The.Meg.2018.BDRip.XviD.AC3-EVO[EtMovies] torrent
The.First.Date.2018.HDRip.XviD.AC3-EVO[EtMovies] torrent
BlacKkKlansman.2018.BRRip.XviD.AC3-EVO[EtMovies] torrent
The Hate U Give.2018.HC.HDRip.XviD.AC3-EVO[EtMovies] torrent

ETTV Recommended HD
The Marine 6.Close Quarters.720p.WEB-DL.H264.AC3-EVO[EtHD] torrent
The Hate U Give.2018.1080p.HC.HDRip.X264.AC3-EVO[EtHD] torrent
Generational.Sins.2017.1080p.AMZN.WEB-DL.DDP5.1.H.264-NTb[EtHD] torrent
Robin.Hood.The.Rebellion.2018.1080p.WEB-DL.DD5.1.H264-CMRG[EtHD] torrent

ETTV Recommended UHD
The.Matrix.Revolutions.2003.Multi.mUHD.2160p.x265.HDR.DD.5.1-DTOne torrent
The.Fog.1980.Multi.UHD.2160p.Bluray.x265.HDR.TS.5.1-DTOne torrent
They.Live.1988.Multi.UHD.2160p.Bluray.x265.HDR.DTS.5.1-DTOne torrent
Blade Runner 2049 (2017) 4K UHD BluRay x264 DTS Alien4 torrent

ETTV Recommended Cam
Hunter Killer 2018 HDCAM.XViD.AC3-ETRG torrent
Replicas 2018.HDCAM.x264.AC3-ETRG torrent
Bohemian Rhapsody 2018 HDCAM.XViD.AC3-ETRG torrent
The Nutcracker and the Four Realms 2018 HDCAM x264 AC3-ETRG torrent

ETTV Recommended Foreign
Raatchasan (2018) 720p x265 AAC 5.1 - DTOne torrent
Dans la brume 2018 1080p BluRay DD5.1 x264-SPEED[EtHD] torrent
Sleepy Hollow (1999) 720p BluRay x264 Dual Audio [Hindi DD5.1 - English DD5.1] - ESUB ~ Ranvijay torrent
5 Weddings 2018 PreDvd Hindi 720p x264 AAC - mkvCinemas torrent

Social


Download Torrent "Star Trek Discovery S00E02 Short Treks Runaway 1080p AMZN WEBrip AAC 5.1 D0..."

IMDB Details
Description:

N/A

Genre:

N/A

Download Torrent (Magnet)
Download Torrent (File)
Seeds: 306
Leechers: 14
Completed: 3,922 
Last Checked: 06-10-2018 02:24:11


Loading...
Details
Title:Star Trek Discovery S00E02 Short Treks Runaway 1080p AMZN WEBrip AAC 5.1 D0...
Description:






I know you're going to ask some questions like I did about this. The source was Star.Trek.Discovery.S00E02.Short.Treks.Runaway.1080p.AMZN.WEBRip.DDP5.1.x264-AJP69
and you can see the questions he got and wait for his answers.

Media Information

Unique ID                                : 204089517547593511840832969246987781594 (0x998A3618F07E4AA6BCA33E75760805DA)
Complete name                            : Star Trek Discovery S00E02 Short Treks Runaway 1080p AMZN WEBrip AAC 5.1 D0ct0rLew[UTR].mkv
Format                                   : Matroska
Format version                           : Version 4
File size                                : 347 MiB
Duration                                 : 15 min 32 s
Overall bit rate                         : 3 124 kb/s
Movie name                               : Star Trek Discovery S00E02 Short Treks Runaway 1080p AMZN WEB-DL DD+5 1 H 264-AJP69
Encoded date                             : UTC 2018-10-06 00:40:15
Writing application                      : mkvmerge v17.0.0 ('Be Ur Friend') 64-bit
Writing library                          : libebml v1.3.5 + libmatroska v1.4.8

Video
ID                                       : 2
Format                                   : HEVC
Format/Info                              : High Efficiency Video Coding
Format profile                           : Main [email protected]@Main
Codec ID                                 : V_MPEGH/ISO/HEVC
Duration                                 : 15 min 32 s
Bit rate                                 : 2 702 kb/s
Width                                    : 1 920 pixels
Height                                   : 1 080 pixels
Display aspect ratio                     : 16:9
Frame rate mode                          : Constant
Frame rate                               : 24.000 FPS
Color space                              : YUV
Chroma subsampling                       : 4:2:0
Bit depth                                : 10 bits
Bits/(Pixel*Frame)                       : 0.054
Stream size                              : 300 MiB (86%)
Writing library                          : x265 2.8+66-88ee12651e30:[Windows][GCC 8.2.0][64 bit] 10bit
Encoding settings                        : cpuid=1049583 / frame-threads=3 / numa-pools=8 / wpp / no-pmode / no-pme / no-psnr / no-ssim / log-level=2 / input-csp=1 / input-res=1920x1080 / interlace=0 / total-frames=22375 / level-idc=0 / high-tier=1 / uhd-bd=0 / ref=4 / no-allow-non-conformance / no-repeat-headers / annexb / no-aud / no-hrd / info / hash=0 / no-temporal-layers / open-gop / min-keyint=24 / keyint=240 / gop-lookahead=0 / bframes=8 / b-adapt=2 / b-pyramid / bframe-bias=0 / rc-lookahead=90 / lookahead-slices=4 / scenecut=40 / radl=0 / no-intra-refresh / ctu=64 / min-cu-size=8 / rect / no-amp / max-tu-size=32 / tu-inter-depth=1 / tu-intra-depth=1 / limit-tu=0 / rdoq-level=2 / dynamic-rd=0.00 / no-ssim-rd / signhide / no-tskip / nr-intra=0 / nr-inter=0 / no-constrained-intra / no-strong-intra-smoothing / max-merge=3 / limit-refs=3 / limit-modes / me=3 / subme=3 / merange=57 / temporal-mvp / weightp / no-weightb / no-analyze-src-pics / deblock=0:0 / no-sao / no-sao-non-deblock / rd=4 / no-early-skip / no-rskip / no-fast-intra / no-tskip-fast / no-cu-lossless / no-b-intra / no-splitrd-skip / rdpenalty=0 / psy-rd=1.20 / psy-rdoq=1.00 / no-rd-refine / no-lossless / cbqpoffs=0 / crqpoffs=0 / rc=crf / crf=20.5 / qcomp=0.50 / qpstep=4 / stats-write=0 / stats-read=0 / ipratio=1.40 / pbratio=1.30 / aq-mode=3 / aq-strength=1.00 / cutree / zone-count=0 / no-strict-cbr / qg-size=32 / no-rc-grain / qpmax=69 / qpmin=0 / no-const-vbv / sar=1 / overscan=0 / videoformat=5 / range=0 / colorprim=1 / transfer=1 / colormatrix=1 / chromaloc=0 / display-window=0 / max-cll=0,0 / min-luma=0 / max-luma=1023 / log2-max-poc-lsb=8 / vui-timing-info / vui-hrd-info / slices=1 / no-opt-qp-pps / no-opt-ref-list-length-pps / no-multi-pass-opt-rps / scenecut-bias=0.05 / no-opt-cu-delta-qp / no-aq-motion / no-hdr / no-hdr-opt / no-dhdr10-opt / no-idr-recovery-sei / analysis-reuse-level=5 / scale-factor=0 / refine-intra=0 / refine-inter=0 / refine-mv=0 / no-limit-sao / ctu-info=0 / no-lowpass-dct / refine-mv-type=0 / copy-pic=1 / max-ausize-factor=1.0 / no-dynamic-refine / no-single-sei
Default                                  : Yes
Forced                                   : No
Color range                              : Limited
Color primaries                          : BT.709
Transfer characteristics                 : BT.709
Matrix coefficients                      : BT.709

Audio
ID                                       : 1
Format                                   : AAC LC
Format/Info                              : Advanced Audio Codec Low Complexity
Codec ID                                 : A_AAC-2
Duration                                 : 15 min 32 s
Bit rate                                 : 420 kb/s
Channel(s)                               : 6 channels
Channel layout                           : C L R Ls Rs LFE
Sampling rate                            : 48.0 kHz
Frame rate                               : 46.875 FPS (1024 SPF)
Compression mode                         : Lossy
Delay relative to video                  : 9 ms
Stream size                              : 46.7 MiB (13%)
Default                                  : Yes
Forced                                   : No

Text
ID                                       : 3
Format                                   : UTF-8
Codec ID                                 : S_TEXT/UTF8
Codec ID/Info                            : UTF-8 Plain Text
Duration                                 : 13 min 42 s
Bit rate                                 : 76 b/s
Count of elements                        : 247
Stream size                              : 7.65 KiB (0%)
Language                                 : English
Default                                  : Yes
Forced                                   : No





We have no issue with individuals posting or re-uploading our torrents on a platform we aren't on. However, if this is something you'd like to do, please do so in a 'as-is' format. We ask that you do not create a new torrent, include all descriptions you see above including the UTR logo, tags, notes and screenshots. If you'd like to become a permanent poster on a website we don't post to, feel free to get in contact with a UniTeam member.



Category:TV > HEVC/x265
Lang:English  English
Total Size:347 MB
Info Hash:43480f05d51048aa64d9a20ef3379f1734d7891d
Added By:UTR
Date Added:06-10-2018 02:24:07

Files

File List: 
 File Size
Star Trek Discovery S00E02 Short Treks Runaway 1080p AMZN WEBrip AAC 5.1 D0ct0rLew[UTR].mkv347 MB



Loading...
Comments

There are currently no comments. Be the first one to write something !

Disclaimer: None of the files shown here are actually hosted or transmitted by this server. The links are provided solely by this site's users. The site moderation is also a service provided by the site's users. The administrator of this site (ettv.tv) cannot be held responsible for what its users post, or any other actions of its users. You may not use this site to distribute or download any material when you do not have the legal rights to do so. It is your own responsibility to adhere to these terms.

Sitemap