2160p arrow 2018 movies ita game of thrones house of cards titans s01e04 Supernatural Venom Incredibles 2 Outlander big bang theory español ddr ufc 230 UFC 2018 ITA ncis The Predator alpha Evo 0 the big bang theory s12e07 Empire ettv fabbriciani arrow español survivor Star Trek Discovery The Walking dead damerini Greys Anatomy ethd Doctor Who Supergirl haberkamp ita 2018 star trek discovery español dtone van helsing in mo yang WWE champian fulton It the flash titans seal team vikings blindspot coral egan shameless etrg etmovies venom ita evo office 2019 fgt Lucifer oceans eleven Big Bang Theory NFL Dtone great british bake off s09e10 ray donovan the nun The Equalizer 2 modern family Gotham A Discovery of Witches Outlander S04E01 hindi doctor who s11e05 the big bang theory 
Warning! Do not Download Without a VPN!
Your IP Address is .   Location is
Download and surf securely, stream unlimited and protect your personal data!
We strongly recommend using SpyOFF VPN!
Become Anonymous with SpyOFF
ETTV Recommended TV Shows
UFC 230 Cormier vs Lewis HDTV x264-Star [TJET] torrent
Ray.Donovan.S06E02.WEBRip.x264-PBS[ettv] torrent
Saturday.Night.Live.S44E04.Jonah.Hill.and.Maggie.Rogers.HDTV.x264-CRiMSON[ettv] torrent
Outlander.S04E01.WEB.H264-MEMENTO[ettv] torrent

ETTV Recommended Xvid
The.Meg.2018.BDRip.XviD.AC3-EVO[EtMovies] torrent
The.First.Date.2018.HDRip.XviD.AC3-EVO[EtMovies] torrent
BlacKkKlansman.2018.BRRip.XviD.AC3-EVO[EtMovies] torrent
The Hate U Give.2018.HC.HDRip.XviD.AC3-EVO[EtMovies] torrent

ETTV Recommended HD
The Marine 6.Close Quarters.720p.WEB-DL.H264.AC3-EVO[EtHD] torrent
The Hate U Give.2018.1080p.HC.HDRip.X264.AC3-EVO[EtHD] torrent
Generational.Sins.2017.1080p.AMZN.WEB-DL.DDP5.1.H.264-NTb[EtHD] torrent
Robin.Hood.The.Rebellion.2018.1080p.WEB-DL.DD5.1.H264-CMRG[EtHD] torrent

ETTV Recommended UHD
The.Matrix.Revolutions.2003.Multi.mUHD.2160p.x265.HDR.DD.5.1-DTOne torrent
The.Fog.1980.Multi.UHD.2160p.Bluray.x265.HDR.TS.5.1-DTOne torrent
They.Live.1988.Multi.UHD.2160p.Bluray.x265.HDR.DTS.5.1-DTOne torrent
Blade Runner 2049 (2017) 4K UHD BluRay x264 DTS Alien4 torrent

ETTV Recommended Cam
Hunter Killer 2018 HDCAM.XViD.AC3-ETRG torrent
Replicas 2018.HDCAM.x264.AC3-ETRG torrent
Bohemian Rhapsody 2018 HDCAM.XViD.AC3-ETRG torrent
The Nutcracker and the Four Realms 2018 HDCAM x264 AC3-ETRG torrent

ETTV Recommended Foreign
Raatchasan (2018) 720p x265 AAC 5.1 - DTOne torrent
Dans la brume 2018 1080p BluRay DD5.1 x264-SPEED[EtHD] torrent
Sleepy Hollow (1999) 720p BluRay x264 Dual Audio [Hindi DD5.1 - English DD5.1] - ESUB ~ Ranvijay torrent
5 Weddings 2018 PreDvd Hindi 720p x264 AAC - mkvCinemas torrent

Social


Download Torrent "Star Trek Discovery (2017) Season 01 S01 (1080p AMZN WEB-DL x265 HEVC 10bit..."

IMDB Details
Description:

N/A

Genre:

N/A

Download Torrent (Magnet)
Download Torrent (File)
Seeds: 154
Leechers: 206
Completed: 1,315 
Last Checked: 29-10-2018 16:48:55


Loading...
Details
Title:Star Trek Discovery (2017) Season 01 S01 (1080p AMZN WEB-DL x265 HEVC 10bit...
Description:






Media Information
General
Format                                   : Matroska
Format version                           : Version 4 / Version 2
File size                                : 426 MiB
Duration                                 : 43 min 31 s
Overall bit rate                         : 1 367 kb/s
Encoded date                             : UTC 2017-10-01 03:48:49
Writing application                      : mkvmerge v14.0.0 ('Flow') 64bit
Writing library                          : libebml v1.3.4 + libmatroska v1.4.5
Writing frontend                         : StaxRip v1.6.0.4

Video
ID                                       : 1
Format                                   : HEVC
Format/Info                              : High Efficiency Video Coding
Format profile                           : Main [email protected]@Main
Codec ID                                 : V_MPEGH/ISO/HEVC
Duration                                 : 43 min 31 s
Bit rate                                 : 1 203 kb/s
Width                                    : 1 920 pixels
Height                                   : 960 pixels
Display aspect ratio                     : 2.000
Frame rate mode                          : Constant
Frame rate                               : 23.976 (24000/1001) FPS
Color space                              : YUV
Chroma subsampling                       : 4:2:0
Bit depth                                : 10 bits
Bits/(Pixel*Frame)                       : 0.027
Stream size                              : 374 MiB (88%)
Writing library                          : x265 2.5+6-d11482e5fedb:[Windows][GCC 7.1.0][64 bit] 10bit
Encoding settings                        : cpuid=1173503 / frame-threads=3 / numa-pools=8 / wpp / no-pmode / no-pme / no-psnr / ssim / log-level=2 / input-csp=1 / input-res=1920x960 / interlace=0 / total-frames=62604 / level-idc=0 / high-tier=1 / uhd-bd=0 / ref=3 / no-allow-non-conformance / no-repeat-headers / annexb / no-aud / no-hrd / info / hash=0 / no-temporal-layers / open-gop / min-keyint=23 / keyint=250 / bframes=4 / b-adapt=2 / b-pyramid / bframe-bias=0 / rc-lookahead=20 / lookahead-slices=6 / scenecut=40 / no-intra-refresh / ctu=64 / min-cu-size=8 / no-rect / no-amp / max-tu-size=32 / tu-inter-depth=1 / tu-intra-depth=1 / limit-tu=0 / rdoq-level=1 / dynamic-rd=0.00 / ssim-rd / signhide / no-tskip / nr-intra=0 / nr-inter=0 / no-constrained-intra / strong-intra-smoothing / max-merge=2 / limit-refs=3 / no-limit-modes / me=1 / subme=2 / merange=57 / temporal-mvp / weightp / no-weightb / analyze-src-pics / deblock=0:0 / sao / no-sao-non-deblock / rd=3 / no-early-skip / rskip / no-fast-intra / no-tskip-fast / no-cu-lossless / no-b-intra / rdpenalty=0 / psy-rd=0.90 / psy-rdoq=1.20 / no-rd-refine / analysis-reuse-mode=0 / no-lossless / cbqpoffs=0 / crqpoffs=0 / rc=abr / bitrate=1200 / qcomp=0.60 / qpstep=4 / stats-write=0 / stats-read=2 / cplxblur=20.0 / qblur=0.5 / ipratio=1.40 / pbratio=1.30 / aq-mode=3 / aq-strength=1.00 / cutree / zone-count=0 / no-strict-cbr / qg-size=32 / no-rc-grain / qpmax=69 / qpmin=0 / no-const-vbv / sar=0 / overscan=0 / videoformat=5 / range=0 / colorprim=2 / transfer=2 / colormatrix=2 / chromaloc=0 / display-window=0 / max-cll=0,0 / min-luma=0 / max-luma=1023 / log2-max-poc-lsb=8 / vui-timing-info / vui-hrd-info / slices=1 / opt-qp-pps / opt-ref-list-length-pps / multi-pass-opt-rps / scenecut-bias=0.05 / no-opt-cu-delta-qp / no-aq-motion / no-hdr / no-hdr-opt / no-dhdr10-opt / analysis-reuse-level=5 / scale-factor=0 / refine-intra=0 / refine-inter=0 / refine-mv=0 / no-limit-sao / ctu-info=0
Default                                  : Yes
Forced                                   : No

Audio
ID                                       : 2
Format                                   : AAC
Format/Info                              : Advanced Audio Codec
Format profile                           : HE-AAC / LC
Codec ID                                 : A_AAC
Duration                                 : 43 min 31 s
Bit rate                                 : 162 kb/s
Channel(s)                               : 6 channels
Channel positions                        : Front: L C R, Side: L R, LFE
Sampling rate                            : 48.0 kHz / 24.0 kHz
Frame rate                               : 23.438 FPS (1024 spf)
Compression mode                         : Lossy
Delay relative to video                  : 31 ms
Stream size                              : 50.4 MiB (12%)
Language                                 : English
Default                                  : No
Forced                                   : No

Subtitle #1
ID                                       : 3
Format                                   : UTF-8
Codec ID                                 : S_TEXT/UTF8
Codec ID/Info                            : UTF-8 Plain Text
Duration                                 : 29 min 34 s
Bit rate                                 : 8 b/s
Count of elements                        : 65
Stream size                              : 1.83 KiB (0%)
Language                                 : English
Default                                  : No
Forced                                   : Yes

Subtitle #2
ID                                       : 4
Format                                   : UTF-8
Codec ID                                 : S_TEXT/UTF8
Codec ID/Info                            : UTF-8 Plain Text
Duration                                 : 42 min 2 s
Bit rate                                 : 82 b/s
Count of elements                        : 652
Stream size                              : 25.3 KiB (0%)
Language                                 : English
Default                                  : No
Forced                                   : No

Subtitle #3
ID                                       : 5
Format                                   : UTF-8
Codec ID                                 : S_TEXT/UTF8
Codec ID/Info                            : UTF-8 Plain Text
Duration                                 : 42 min 44 s
Bit rate                                 : 127 b/s
Count of elements                        : 653
Stream size                              : 39.8 KiB (0%)
Language                                 : Arabic
Default                                  : No
Forced                                   : No

Subtitle #4
ID                                       : 6
Format                                   : UTF-8
Codec ID                                 : S_TEXT/UTF8
Codec ID/Info                            : UTF-8 Plain Text
Duration                                 : 42 min 44 s
Bit rate                                 : 71 b/s
Count of elements                        : 654
Stream size                              : 22.5 KiB (0%)
Language                                 : French
Default                                  : No
Forced                                   : No

Subtitle #5
ID                                       : 7
Format                                   : UTF-8
Codec ID                                 : S_TEXT/UTF8
Codec ID/Info                            : UTF-8 Plain Text
Duration                                 : 42 min 44 s
Bit rate                                 : 72 b/s
Count of elements                        : 644
Stream size                              : 22.8 KiB (0%)
Language                                 : Polish
Default                                  : No
Forced                                   : No

Subtitle #6
ID                                       : 8
Format                                   : UTF-8
Codec ID                                 : S_TEXT/UTF8
Codec ID/Info                            : UTF-8 Plain Text
Duration                                 : 42 min 45 s
Bit rate                                 : 60 b/s
Count of elements                        : 649
Stream size                              : 18.8 KiB (0%)
Default                                  : No
Forced                                   : No

Source Information
Release: Star Trek: Discovery S01 1080p AMZN WEB-DL DD+5.1 H.265-SiGMA  (39.5 GB)


UTR wrote:

Note From UTR
We have no issue with individuals posting or re-uploading our torrents on a platform we aren't on. However, if this is something you'd like to do, please do so in a 'as-is' format. We ask that you do not create a new torrent, include all descriptions you see above including the UTR logo, tags, notes and screenshots. If you'd like to become a permanent poster on a website we don't post to, feel free to get in contact with a UniTeam member.

If possible please donate: BTC 1QA5fum5AyXvWzdVCkQzUNvw3Ef15fHRaR


Category:TV > HEVC/x265
Lang:English  English
Total Size:6.92 GB
Info Hash:00868d556f64d426e469990fb38f589409379e80
Added By:UTR
Date Added:29-10-2018 16:48:38

Files

File List: 
 File Size
Encoded by JoyBell (UTR).txt2.73 kB
folder.jpg244.38 kB
How to play HEVC (THIS FILE).txt3.42 kB
Ninite K-Lite Codecs Unattended Silent Installer and Updater.website561.00 B
Star Trek Discovery S00E02 Short Treks Runaway (1080p x265 10bit S85 Joy).mkv158 MB
Star Trek Discovery S01E01 The Vulcan Hello (1080p x265 10bit S90 Joy).mkv426 MB
Star Trek Discovery S01E02 Battle at the Binary Stars (1080p x265 10bit S88 Joy).mkv382 MB
Star Trek Discovery S01E03 Context Is for Kings (1080p x265 10bit FS92 Joy).mkv492 MB
Star Trek Discovery S01E04 The Butcher's Knife Cares Not for the Lamb's Cry (1080p x265 10bit FS78 Joy).mkv504 MB
Star Trek Discovery S01E05 Choose Your Pain (1080p x265 10bit S77 Joy).mkv481 MB
Star Trek Discovery S01E06 Lethe (1080p x265 10bit S78 Joy).mkv455 MB
Star Trek Discovery S01E07 Magic to Make The Sanest Man Go Mad (1080p x265 10bit FS84 Joy).mkv485 MB
Star Trek Discovery S01E08 Si Vis Pacem Para Bellum (1080p x265 10bit FS79 Joy).mkv423 MB
Star Trek Discovery S01E09 Into the Forest I Go (1080p x265 10bit FS81 Joy).mkv485 MB
Star Trek Discovery S01E10 Despite Yourself (1080p x265 10bit FS86 Joy).mkv497 MB
Star Trek Discovery S01E11 The Wolf Inside (1080p x265 10bit FS88 Joy).mkv505 MB
Star Trek Discovery S01E12 Vaulting Ambition (1080p x265 10bit FS93 Joy).mkv386 MB
Star Trek Discovery S01E13 Whats Past Is Prologue (1080p x265 10bit FS88 Joy).mkv445 MB
Star Trek Discovery S01E14 The War Without The War Within (1080p x265 10bit S92 Joy).mkv504 MB
Star Trek Discovery S01E15 Will You Take My Hand (1080p x265 10bit FS91 Joy).mkv462 MB



Loading...
Comments

There are currently no comments. Be the first one to write something !

Disclaimer: None of the files shown here are actually hosted or transmitted by this server. The links are provided solely by this site's users. The site moderation is also a service provided by the site's users. The administrator of this site (ettv.tv) cannot be held responsible for what its users post, or any other actions of its users. You may not use this site to distribute or download any material when you do not have the legal rights to do so. It is your own responsibility to adhere to these terms.

Sitemap