2160p arrow 2018 movies ita game of thrones house of cards titans s01e04 Supernatural Venom Incredibles 2 Outlander big bang theory español ddr ufc 230 UFC 2018 ITA ncis The Predator alpha Evo 0 the big bang theory s12e07 Empire ettv fabbriciani arrow español survivor Star Trek Discovery The Walking dead damerini Greys Anatomy ethd Doctor Who Supergirl haberkamp ita 2018 star trek discovery español dtone van helsing in mo yang WWE champian fulton It the flash titans seal team vikings blindspot coral egan shameless etrg etmovies venom ita evo office 2019 fgt Lucifer oceans eleven Big Bang Theory NFL Dtone great british bake off s09e10 ray donovan the nun The Equalizer 2 modern family Gotham A Discovery of Witches Outlander S04E01 hindi doctor who s11e05 the big bang theory 
Warning! Do not Download Without a VPN!
Your IP Address is .   Location is
Download and surf securely, stream unlimited and protect your personal data!
We strongly recommend using SpyOFF VPN!
Become Anonymous with SpyOFF
ETTV Recommended TV Shows
UFC 230 Cormier vs Lewis HDTV x264-Star [TJET] torrent
Ray.Donovan.S06E02.WEBRip.x264-PBS[ettv] torrent
Saturday.Night.Live.S44E04.Jonah.Hill.and.Maggie.Rogers.HDTV.x264-CRiMSON[ettv] torrent
Outlander.S04E01.WEB.H264-MEMENTO[ettv] torrent

ETTV Recommended Xvid
The.Meg.2018.BDRip.XviD.AC3-EVO[EtMovies] torrent
The.First.Date.2018.HDRip.XviD.AC3-EVO[EtMovies] torrent
BlacKkKlansman.2018.BRRip.XviD.AC3-EVO[EtMovies] torrent
The Hate U Give.2018.HC.HDRip.XviD.AC3-EVO[EtMovies] torrent

ETTV Recommended HD
The Marine 6.Close Quarters.720p.WEB-DL.H264.AC3-EVO[EtHD] torrent
The Hate U Give.2018.1080p.HC.HDRip.X264.AC3-EVO[EtHD] torrent
Generational.Sins.2017.1080p.AMZN.WEB-DL.DDP5.1.H.264-NTb[EtHD] torrent
Robin.Hood.The.Rebellion.2018.1080p.WEB-DL.DD5.1.H264-CMRG[EtHD] torrent

ETTV Recommended UHD
The.Matrix.Revolutions.2003.Multi.mUHD.2160p.x265.HDR.DD.5.1-DTOne torrent
The.Fog.1980.Multi.UHD.2160p.Bluray.x265.HDR.TS.5.1-DTOne torrent
They.Live.1988.Multi.UHD.2160p.Bluray.x265.HDR.DTS.5.1-DTOne torrent
Blade Runner 2049 (2017) 4K UHD BluRay x264 DTS Alien4 torrent

ETTV Recommended Cam
Hunter Killer 2018 HDCAM.XViD.AC3-ETRG torrent
Replicas 2018.HDCAM.x264.AC3-ETRG torrent
Bohemian Rhapsody 2018 HDCAM.XViD.AC3-ETRG torrent
The Nutcracker and the Four Realms 2018 HDCAM x264 AC3-ETRG torrent

ETTV Recommended Foreign
Raatchasan (2018) 720p x265 AAC 5.1 - DTOne torrent
Dans la brume 2018 1080p BluRay DD5.1 x264-SPEED[EtHD] torrent
Sleepy Hollow (1999) 720p BluRay x264 Dual Audio [Hindi DD5.1 - English DD5.1] - ESUB ~ Ranvijay torrent
5 Weddings 2018 PreDvd Hindi 720p x264 AAC - mkvCinemas torrent

Social


Download Torrent "Star Trek Discovery (2017) Season 01 S01 (1080p WEBRip x265 HEVC 10bit AAC ..."

IMDB Details
Description:

N/A

Genre:

N/A

Download Torrent (Magnet)
Download Torrent (File)
Seeds: 96
Leechers: 256
Completed: 586 
Last Checked: 29-10-2018 17:02:26


Loading...
Details
Title:Star Trek Discovery (2017) Season 01 S01 (1080p WEBRip x265 HEVC 10bit AAC ...
Description:






Media Information
General
Format                                   : Matroska
Format version                           : Version 4 / Version 2
File size                                : 740 MiB
Duration                                 : 43 min 31 s
Overall bit rate                         : 2 378 kb/s
Encoded date                             : UTC 2018-10-24 09:19:24
Writing application                      : mkvmerge v24.0.0 ('Beyond The Pale') 64-bit
Writing library                          : libebml v1.3.6 + libmatroska v1.4.9
Writing frontend                         : StaxRip v1.8.2.0

Video
ID                                       : 1
Format                                   : HEVC
Format/Info                              : High Efficiency Video Coding
Format profile                           : Main [email protected]@Main
Codec ID                                 : V_MPEGH/ISO/HEVC
Duration                                 : 42 min 43 s
Bit rate                                 : 2 197 kb/s
Width                                    : 1 920 pixels
Height                                   : 960 pixels
Display aspect ratio                     : 2.000
Frame rate mode                          : Constant
Frame rate                               : 23.976 (24000/1001) FPS
Color space                              : YUV
Chroma subsampling                       : 4:2:0
Bit depth                                : 10 bits
Bits/(Pixel*Frame)                       : 0.050
Stream size                              : 671 MiB (91%)
Writing library                          : x265 2.8+19-bcdc610cf5f0:[Windows][MSVC 1914][64 bit] 10bit
Encoding settings                        : cpuid=1111039 / frame-threads=3 / numa-pools=8 / wpp / no-pmode / no-pme / no-psnr / ssim / log-level=2 / input-csp=1 / input-res=1920x960 / interlace=0 / total-frames=61453 / level-idc=0 / high-tier=1 / uhd-bd=0 / ref=4 / no-allow-non-conformance / no-repeat-headers / annexb / no-aud / no-hrd / info / hash=0 / no-temporal-layers / open-gop / min-keyint=23 / keyint=250 / gop-lookahead=0 / bframes=4 / b-adapt=2 / b-pyramid / bframe-bias=0 / rc-lookahead=25 / lookahead-slices=4 / scenecut=40 / radl=0 / no-intra-refresh / ctu=64 / min-cu-size=8 / rect / no-amp / max-tu-size=32 / tu-inter-depth=1 / tu-intra-depth=1 / limit-tu=0 / rdoq-level=2 / dynamic-rd=0.00 / ssim-rd / signhide / no-tskip / nr-intra=0 / nr-inter=0 / no-constrained-intra / strong-intra-smoothing / max-merge=3 / limit-refs=3 / limit-modes / me=3 / subme=3 / merange=57 / temporal-mvp / weightp / no-weightb / no-analyze-src-pics / deblock=0:0 / sao / no-sao-non-deblock / rd=4 / early-skip / rskip / no-fast-intra / no-tskip-fast / no-cu-lossless / no-b-intra / no-splitrd-skip / rdpenalty=0 / psy-rd=1.20 / psy-rdoq=0.80 / no-rd-refine / no-lossless / cbqpoffs=0 / crqpoffs=0 / rc=crf / crf=22.0 / qcomp=0.60 / qpstep=4 / stats-write=0 / stats-read=0 / ipratio=1.40 / pbratio=1.30 / aq-mode=1 / aq-strength=1.00 / cutree / zone-count=0 / no-strict-cbr / qg-size=32 / no-rc-grain / qpmax=69 / qpmin=0 / no-const-vbv / sar=0 / overscan=0 / videoformat=5 / range=0 / colorprim=2 / transfer=2 / colormatrix=2 / chromaloc=0 / display-window=0 / max-cll=0,0 / min-luma=0 / max-luma=1023 / log2-max-poc-lsb=8 / vui-timing-info / vui-hrd-info / slices=1 / no-opt-qp-pps / no-opt-ref-list-length-pps / no-multi-pass-opt-rps / scenecut-bias=0.05 / no-opt-cu-delta-qp / no-aq-motion / no-hdr / no-hdr-opt / no-dhdr10-opt / no-idr-recovery-sei / analysis-reuse-level=5 / scale-factor=0 / refine-intra=0 / refine-inter=0 / refine-mv=0 / no-limit-sao / ctu-info=0 / no-lowpass-dct / refine-mv-type=0 / copy-pic=1 / max-ausize-factor=1.0 / no-dynamic-refine / no-single-sei
Default                                  : Yes
Forced                                   : No

Audio
ID                                       : 2
Format                                   : AAC
Format/Info                              : Advanced Audio Codec
Format profile                           : HE-AAC / LC
Codec ID                                 : A_AAC
Duration                                 : 43 min 31 s
Bit rate                                 : 220 kb/s
Channel(s)                               : 6 channels
Channel positions                        : Front: L C R, Side: L R, LFE
Sampling rate                            : 48.0 kHz / 24.0 kHz
Frame rate                               : 23.438 FPS (1024 spf)
Compression mode                         : Lossy
Delay relative to video                  : 31 ms
Stream size                              : 68.3 MiB (9%)
Language                                 : English
Default                                  : No
Forced                                   : No

Subtitle #1
ID                                       : 3
Format                                   : UTF-8
Codec ID                                 : S_TEXT/UTF8
Codec ID/Info                            : UTF-8 Plain Text
Duration                                 : 29 min 34 s
Bit rate                                 : 8 b/s
Count of elements                        : 65
Stream size                              : 1.83 KiB (0%)
Language                                 : English
Default                                  : No
Forced                                   : No

Subtitle #2
ID                                       : 4
Format                                   : UTF-8
Codec ID                                 : S_TEXT/UTF8
Codec ID/Info                            : UTF-8 Plain Text
Duration                                 : 42 min 2 s
Bit rate                                 : 82 b/s
Count of elements                        : 652
Stream size                              : 25.3 KiB (0%)
Language                                 : English
Default                                  : No
Forced                                   : No

Subtitle #3
ID                                       : 5
Format                                   : UTF-8
Codec ID                                 : S_TEXT/UTF8
Codec ID/Info                            : UTF-8 Plain Text
Duration                                 : 42 min 44 s
Bit rate                                 : 127 b/s
Count of elements                        : 653
Stream size                              : 39.8 KiB (0%)
Language                                 : Arabic
Default                                  : No
Forced                                   : No

Subtitle #4
ID                                       : 6
Format                                   : UTF-8
Codec ID                                 : S_TEXT/UTF8
Codec ID/Info                            : UTF-8 Plain Text
Duration                                 : 42 min 44 s
Bit rate                                 : 71 b/s
Count of elements                        : 654
Stream size                              : 22.5 KiB (0%)
Language                                 : French
Default                                  : No
Forced                                   : No

Subtitle #5
ID                                       : 7
Format                                   : UTF-8
Codec ID                                 : S_TEXT/UTF8
Codec ID/Info                            : UTF-8 Plain Text
Duration                                 : 42 min 44 s
Bit rate                                 : 72 b/s
Count of elements                        : 644
Stream size                              : 22.8 KiB (0%)
Language                                 : Polish
Default                                  : No
Forced                                   : No

Subtitle #6
ID                                       : 8
Format                                   : UTF-8
Codec ID                                 : S_TEXT/UTF8
Codec ID/Info                            : UTF-8 Plain Text
Duration                                 : 42 min 45 s
Bit rate                                 : 60 b/s
Count of elements                        : 649
Stream size                              : 18.8 KiB (0%)
Default                                  : No
Forced                                   : No

Source Information
Release: Star.Trek.Discovery.S01.1080p.NF.WEBRip.x265.10bit.HDR.DD5.1-TrollHD[rartv]  (52.6 GB)


UTR wrote:

Note From UTR
We have no issue with individuals posting or re-uploading our torrents on a platform we aren't on. However, if this is something you'd like to do, please do so in a 'as-is' format. We ask that you do not create a new torrent, include all descriptions you see above including the UTR logo, tags, notes and screenshots. If you'd like to become a permanent poster on a website we don't post to, feel free to get in contact with a UniTeam member.

If possible please donate: BTC 1QA5fum5AyXvWzdVCkQzUNvw3Ef15fHRaR


Category:TV > HEVC/x265
Lang:English  English
Total Size:15.67 GB
Info Hash:55ea1c01f0dfa5008ce1feb16a92da80cd18eb5a
Added By:UTR
Date Added:29-10-2018 17:02:10

Files

File List: 
 File Size
Encoded by JoyBell (UTR).txt2.73 kB
folder.jpg244.38 kB
How to play HEVC (THIS FILE).txt3.42 kB
Ninite K-Lite Codecs Unattended Silent Installer and Updater.website561.00 B
Star Trek Discovery S00E02 Short Treks Runaway (1080p x265 10bit S85 Joy).mkv158 MB
Star Trek Discovery S01E01 The Vulcan Hello (1080p x265 q22 FS92 Joy).mkv740 MB
Star Trek Discovery S01E02 Battle at the Binary Stars (1080p x265 q22 FS89 Joy).mkv797 MB
Star Trek Discovery S01E03 Context Is for Kings (1080p x265 q22 FS87 Joy).mkv913 MB
Star Trek Discovery S01E04 The Butcher's Knife Cares Not for the Lamb's Cry (1080p x265 q22 FS79 Joy).mkv1.43 GB
Star Trek Discovery S01E05 Choose Your Pain (1080p x265 q22 FS79 Joy).mkv1.20 GB
Star Trek Discovery S01E06 Lethe (1080p x265 q22 FS81 Joy).mkv1.09 GB
Star Trek Discovery S01E07 Magic to Make the Sanest Man Go Mad (1080p x265 q22 FS75 Joy).mkv1.28 GB
Star Trek Discovery S01E08 Si Vis Pacem, Para Bellum (1080p x265 q22 FS84 Joy).mkv1.07 GB
Star Trek Discovery S01E09 Into the Forest I Go (1080p x265 q22 FS78 Joy).mkv1.26 GB
Star Trek Discovery S01E10 Despite Yourself (1080p x265 q22 FS84 Joy).mkv1.03 GB
Star Trek Discovery S01E11 The Wolf Inside (1080p x265 q22 FS89 Joy).mkv1.22 GB
Star Trek Discovery S01E12 Vaulting Ambition (1080p x265 q22 FS88 Joy).mkv704 MB
Star Trek Discovery S01E13 What's Past Is Prologue (1080p x265 q22 FS83 Joy).mkv1.09 GB
Star Trek Discovery S01E14 The War Without, The War Within (1080p x265 q22 FS87 Joy).mkv924 MB
Star Trek Discovery S01E15 Will You Take My Hand (1080p x265 q22 FS87 Joy).mkv884 MB



Loading...
Comments

There are currently no comments. Be the first one to write something !

Disclaimer: None of the files shown here are actually hosted or transmitted by this server. The links are provided solely by this site's users. The site moderation is also a service provided by the site's users. The administrator of this site (ettv.tv) cannot be held responsible for what its users post, or any other actions of its users. You may not use this site to distribute or download any material when you do not have the legal rights to do so. It is your own responsibility to adhere to these terms.

Sitemap